rissoles

Retired
  • Content count

    595
  • Joined

  • Last visited

Community Reputation

159 Excellent

About rissoles

  • Rank
    Our Shining Star...
  • Birthday 12/31/1914

Contact Methods

  • Website URL
    http://raikothan.makeforum.co.uk/

Profile Information

  • Gender
    Male
  • Location:
    The Joan O'Groats Home for the Criminally Insane
  • Interests
    Vandalising telephone kiosks, farting in lifts, and eating mobile phones.

Recent Profile Visitors

1,692 profile views
  1. Excelente aporte. Muchas gracias!

  2. Rest in peace Rissoles. Condolences to the Rissoles Family and all his friends. Such a great shame -( Shout Box will never be the same

  3. Though we never met face to face, you always left a smile on mine. So many like me owe you hours and hours of enjoyment which no amount of words will show our gratitude. Goodbye Friend

  4. I left on holiday on the 13th and returned today to find out that you've left us... I shall miss our useless russian banter sessions greatly. The shout out box will never be the same... RIP Mate

  5. R.I.P. Condolences to your family and friends.

  6. R.I.P mate may you be looking upon your family and keep them safe, my condolences to all your loved ones and friends

  7. I wish your family the greatest, and know that you will watch over everyone with the greatest of attention now! hehe.....rest well friend....

  8. R.I.P rissoles may you rest in movie hq heaven. we will all miss you

  9. as I am clearly not party to the "joke"... I have to ask, is this a real request or, as I suspect, am I missing something?
  10. The second episode was due to air 12th December but as yet has not appeared in torrent land... sorry, I will leave this open in case it does.
  11. HEre you go... kickass.tothe.class.of.92.2013.mp4.torrent
  12. Sh1t quality sound (first 4 minutes - not to mention a 2 minute Russian interruption at about 20 minutes in and other sundry drops) but does improve a little as the movie unfolds - I would genuinely suggest waiting for a better quality copy to emerge... mind you I watched it and it was not too bad (better than some). Homefront (2013) CAM Format : AVI Format/Info : Audio Video Interleave Format profile : OpenDML Format settings : rec File size : 1.36 GiB Duration : 1h 30mn Overall bit rate : 2 146 Kbps Writing application : AVI-Mux GUI 1.17.8.3, Feb 16 201019:42:50 Video ID : 0 Format : MPEG-4 Visual Format profile : Advanced Simple@L5 Format settings, BVOP : 1 Format settings, QPel : No Format settings, GMC : No warppoints Format settings, Matrix : Default (MPEG) Codec ID : XVID Codec ID/Hint : XviD Duration : 1h 30mn Bit rate : 1 949 Kbps Width : 720 pixels Height : 256 pixels Display aspect ratio : 2.812 Frame rate : 25.000 fps Color space : YUV Chroma subsampling : 4:2:0 Bit depth : 8 bits Scan type : Progressive Compression mode : Lossy Bits/(Pixel*Frame) : 0.423 Stream size : 1.24 GiB (91%) Writing library : XviD 73 Audio ID : 1 Format : AC-3 Format/Info : Audio Coding 3 Mode extension : CM (complete main) Format settings, Endianness : Big Codec ID : 2000 Duration : 1h 30mn Bit rate mode : Constant Bit rate : 192 Kbps Channel(s) : 2 channels Channel positions : Front: L R Sampling rate : 44.1 KHz Bit depth : 16 bits Compression mode : Lossy Stream size : 125 MiB (9%) Alignment : Aligned on interleaves Interleave, duration : 70 ms (1.74 video frames) Interleave, preload duration : 208 ms Title : Homefront 2013 IMDB Link Actors: Jason Statham, James Franco and many more... Plot: Phil Broker is a former DEA agent who has gone through a crisis after his action against a biker gang went horribly wrong and it cost the life of his boss' son. He is recently widowed and is left with a 9-years-old daughter,Maddy. He decides to quit the turbulent and demanding life of thrill for Maddy's sake and retires to a small town. His daughter fights off a boy who was bullying her at school and this sets in motion a round of events that end in his direct confrontation with the local Meth drug lord. His past history with the biker gang also enters the arena, making matters more complex. But he has a mission in his mind to protect his daughter and he is ready to pay any cost that it demands. Homefront.2013.CAM.READNFO.XViD-FANTA.torrent
  13. interesting that not one person seeks to enlighten themselves...
  14. Still one of the greatest 20th bands