Stonegimp

Admin
  • Content count

    5,036
  • Joined

  • Last visited

Community Reputation

2,949 Can't Read That? It's LEET!

About Stonegimp

  • Rank
    Set Designer
  • Birthday 09/25/1978

Profile Information

  • Gender
    Male
  • Location:
    Manchester, England
  1. Fetch (Full) v1.0.0 [Apk+Obb]-XpoZ Torrent Name: Fetch (Full) v1.0.0 [Apk+Obb]-Xpo Torrent Size: 843.90 MB Hash Info: CF0AF29FFC8EAA133DB7B90CD58B5170577B8A6A Number of File(s): 8 Date of Original Upload: Sat 18 February 2017 Follow a young boy on a sensational journey like no other as he sets off to rescue his dog Bear from a mysterious fire hydrant that snatched the canine in the night! Game Review: Follow a young boy on a sensational journey like no other as he sets off to rescue his dog Bear from a mysterious fire hydrant that snatched the canine in the night! Big Fish Studios is proud to present Fetch, an adventure tale that will warm your heart and keep you glued to the screen! One part interactive animation, one part childhood delight, equal parts adventure and arcade, Fetch captures the timeless emotion of puppy love and takes you on a journey through dark tunnels and sandy shores to save your best friend. Do you have what it takes to save Bear? Prepare yourself for a wild ride filled with wagging tails and boisterous barks! Features • Battle hilarious aliens; discover a prehistoric ocean; build a robot; pilot a rocket ship, and more! • Discover arcade-style games like Rainbow Snake Time and Pier Pressure; then compete for the highest score with family and friends! • Captivating characters bring a timeless “tail” to life! • Dive in to a living animated world • Rescue furry friends and unravel the mystery of who's behind the disappearances of the world's WOOF! Instructions 1.Install Apk 2.Copy‘com.bigfishgames.fetchgoogfull' Folder to sdcard/Android/obb.(If your default storage is phone then copy that folder in phone memory into same path) 3.Launch the Game 4.Enjoy. Fetch (Full) v1.0.0 [Apk+Obb]-XpoZ.torrent
  2. Counter.Clockwise.2016.BRRip.XviD.AC3-EVO Counter Clockwise (2016) IMDB Rating: 3.9/10 Release Date: 4 October 2016 (USA) Genres: Comedy / Sci-Fi / Thriller Runtime: 1H 41M Plot: By inventively merging mind-bending science fiction with dark comedy, COUNTER CLOCKWISE delivers a hugely entertaining thriller about a befuddled time traveling scientist caught up in a murder mystery. Bearded scientist Ethan Walker is obsessively working on inventing a tele-transportation device. Instead he stumbles into inventing a time machine and recklessly zaps himself six months into the future. Ethen finds that the future has taken a sinister tone as men are out to kill him and the police are looking for him for the murder of his sister and wife. He now needs to try to return to the point right before everything went wrong and solve the mysteries. Easier said than done. An inventive, head-scratching, fast-paced American Indie time-travelling gem. Director: George Moïse Cast: Bruno Amato Cleo Antonelli Brad Bishop Torrent Name: Counter.Clockwise.2016.BRRip.XviD.AC3-EV Torrent Size: 1.37 GB Hash Info: 02C9396DC535D77C88C79EDA11C6134A7291F678 Number of File(s): 4 Date of Original Upload: Fri 17 February 2017 RELEASE: Counter.Clockwise.2016.BRRip.XviD.AC3-EVO SOURCE: SADPANDA (Scene) ViDEO: 1700 Kbps XviD RESOLUTiON: 720x304 RUNTiME: 1h 31m 43s SUBTiTLES: No. AUDiO: 448 Kbps AC3 5.1 LANGUAGE: ENGLiSH NOTES: Enjoy. SPECIAL THANKS TO: KING_DVD Counter.Clockwise.2016.BRRip.XviD.AC3-EVO.torrent
  3. Evanescence - Lost Whispers [2017] [320kbps] [Pirate Shovon] Torrent Name: Evanescence - Lost Whispers [2017] [320kbps] [Pirate Shovon Torrent Size: 97.22 MB Hash Info: 7FAC0385A2B82FF01B3C3966F6537DA52D21B617 Number of File(s): 19 Date of Original Upload: Thu 16 February 2017 Tracks 01 - Lost Whispers (Intro).mp3 02 - Even In Death (2016 Version).mp3 03 - Missing.mp3 04 - Farther Away.mp3 05 - Breathe No More.mp3 06 - If You Don't Mind.mp3 07 - Together Again.mp3 08 - The Last Song I'm Wasting on You.mp3 09 - A New Way To Bleed.mp3 10 - Say You Will.mp3 11 - Disappear.mp3 12 - Secret Door.mp3 Audio Format : MPEG Audio Format version : Version 1 Format profile : Layer 3 Mode : Joint stereo Bit rate mode : Constant Bit rate : 320 kb/s Channel(s) : 2 channels Sampling rate : 44.1 kHz Compression mode : Lossy Writing library : LAME3.100Í Evanescence - Lost Whispers [2017] [320kbps] [Pirate Shovon].torrent
  4. Doctor Strange (2016) 3D 1080p BRRip 6CH 2.1GB - MkvCage Doctor Strange (2016) IMDB Rating: 7.8/10 Release Date: 25 October 2016 (UK) Genres: Action / Adventure / Fantasy Runtime: 1H 55M Plot: Marvel's "Doctor Strange" follows the story of the talented neurosurgeon Doctor Stephen Strange who, after a tragic car accident, must put ego aside and learn the secrets of a hidden world of mysticism and alternate dimensions. Based in New York City's Greenwich Village, Doctor Strange must act as an intermediary between the real world and what lies beyond, utilising a vast array of metaphysical abilities and artifacts to protect the Marvel Cinematic Universe. Director: Scott Derrickson Cast: Benedict Cumberbatch Chiwetel Ejiofor Rachel McAdams Torrent Name: Doctor Strange (2016) 3D 1080p BRRip 6CH 2.1GB - MkvCag Torrent Size: 2.16 GB Hash Info: 32F752604891F027C24F5968EDCFD7D8C4B06514 Number of File(s): 1 Date of Original Upload: Fri 17 February 2017 Release Date: 4 November 2016 (USA) Genres: Action, Adventure, Fantasy, Sci-Fi Format: MatRoska (Mkv) File Size: 2GB Resolution: 1920x1016 Runtime: 01:54:58 Language: English Subtitles: English Encoder: MkvCage (MC) Team Source: 3D.1080p.BluRay.x264-SPRiNTER Doctor.Strange.2016.3D.1080p.BRRip.MkvCage.mkv.torrent
  5. American.Fable.2016.HDRip.XviD.AC3-EVO American Fable (2017) IMDB Rating: 7.4/10 Release Date: 17 February 2017 (USA) Genres: Thriller Runtime: 1H 36M Plot: When 11-year-old Gitty discovers that her beloved father is hiding a wealthy man in her family's silo in order to save their struggling farm, she is forced to choose between saving the man's life or protecting her family from the consequences of their actions. AMERICAN FABLE is a fairytale thriller set in the 1980s rural Midwest about a courageous girl living in a dark - sometimes magical - world. Director: Anne Hamilton Cast: Peyton Kennedy Richard Schiff Kip Pardue Torrent Name: American.Fable.2016.HDRip.XviD.AC3-EV Torrent Size: 1.39 GB Hash Info: 504603D0C758CF7B70377A72D279C2868BAA6364 Number of File(s): 4 Date of Original Upload: Fri 17 February 2017 RELEASE: American.Fable.2016.HDRip.XviD.AC3-EVO SOURCE: FGT (1080p) ViDEO: 1800 Kbps XviD RESOLUTiON: 720x304 RUNTiME: 1h 36m 43s SUBTiTLES: No. AUDiO: 384 Kbps AC3 5.1 LANGUAGE: ENGLiSH NOTES: Enjoy. SPECIAL THANKS TO: KING_DVD American.Fable.2016.HDRip.XviD.AC3-EVO.torrent
  6. Meet the Blacks 2016 1080p BluRay x264 DTS-JYK Meet the Blacks (2016) IMDB Rating: 3.1/10 Release Date: 1 April 2016 (USA) Genres: Comedy / Horror Runtime: 1H 34M Plot: The Black family is getting out of Chicago in hopes of a better life. After Carl Black (Mike Epps) comes into some unexpected funds, he takes his family and leaves the hustling lifestyle behind for something better. Carl, his new wife Lorena (Zulay Henao), son Carl Jr., daughter Allie Black (Bresha Webb) and cousin Cronut (Lil Duval) pack up and move to Beverly Hills. Turns out, Carl couldn't have picked a worse time to move. They arrive right around the time of the annual purge, when all crime is legal for twelve hours. Director: Deon Taylor Cast: Mike Epps Zulay Henao Alex Henderson Torrent Name: Meet the Blacks 2016 1080p BluRay x264 DTS-JY Torrent Size: 2.37 GB Hash Info: ADC89CDC1FDE74D4F2E075AC6C7DA7A021B091AC Number of File(s): 3 Date of Original Upload: Thu 16 February 2017 Storyline: The Black family is getting out of Chicago in hopes of a better life. After Carl Black (Mike Epps) comes into some unexpected funds, he takes his family and leaves the hustling lifestyle behind for something better. Carl, his new wife Lorena (Zulay Henao), son Carl Jr., daughter Allie Black (Bresha Webb) and cousin Cronut (Lil Duval) pack up and move to Beverly Hills. Turns out, Carl couldn't have picked a worse time to move. They arrive right around the time of the annual purge, when all crime is legal for twelve hours. General: Format.......: Matroska File Size....: 2.37 GiB Duration.....: 1h 34mn Bitrate......: 3 606 Kbps Source.......: BluRay Encoder".......JYK Subtitles....: English IMDB.......http://www.imdb.com/title/tt4191580/ Video: Video Format......: AVC Video Codec.......: x264 core 148 r2638 7599210 Bitrate...........: 2 850 Kbps Frame Rate........: 23.976 fps Width.............: 1 920 pixels Height............: 800 pixels aspect ratio......: 2.40:1 Audio #1: Format..........: DTS Bitrate.........: 755 Kbps Channels........: 6 channels Sampling Rate...: 48.0 KHz Language........: English Meet the Blacks 2016 1080p BluRay x264 DTS-JYK.torrent
  7. Thank You and your comments mean a lot, I am very touched in what you have said and I know both mine and DM heads will and always be held high.
  8. To be honest the cost of the running of the site isn't that much, it's the time spent posting all the new content everyday. Then when Paypal closed down the account for donations and we lost everything in it, it make you look at the larger picture, we lost a lot of money as we never took a penny of the donation for ourselves. We, Deadmeat and I would love for the site to continue, but not being run by ourselves, we are willing to sell the site to someone who is will to take it on, I personally would continue to post but not like I use to.
  9. Gold.2016.DVDScr.XVID.AC3.HQ.Hive-CM8 Gold (2017) IMDB Rating: 6.5/10 Release Date: 3 February 2017 (UK) Genres: Adventure / Drama / Thriller Runtime: 2H 0M Plot: Kenny Wells, a prospector desperate for a lucky break, teams up with a similarly eager geologist and sets off on a journey to find gold in the uncharted jungle of Indonesia. Director: Stephen Gaghan Cast: Matthew McConaughey Edgar Ramírez Bryce Dallas Howard Torrent Name: Gold.2016.DVDScr.XVID.AC3.HQ.Hive-CM Torrent Size: 1.72 GB Hash Info: 1C25E999138B5A14300DC719C3D1E52B1003E355 Number of File(s): 4 Date of Original Upload: Fri 10 February 2017 Encode: Quality was nice, fixed rgb and brightness. removed all watermarks from video and audio, safety first. enjoy Video: 720x304 @bitrate 1700 2pass Audio: English AC3 Stereo Sample: yes included General Complete name : Gold.2016.DVDScr.XVID.AC3.HQ.Hive-CM8.avi Format : AVI Format/Info : Audio Video Interleave File size : 1.71 GiB Duration : 2h 0mn Overall bit rate : 2 042 Kbps Writing application : Nandub v1.0rc2 Writing library : Nandub build 1853/release Video ID : 0 Format : MPEG-4 Visual Format profile : Advanced Simple@L5 Format settings, BVOP : 2 Format settings, QPel : Yes Format settings, GMC : No warppoints Format settings, Matrix : Default (H.263) Muxing mode : Packed bitstream Codec ID : XVID Codec ID/Hint : XviD Duration : 2h 0mn Bit rate : 1 774 Kbps Width : 720 pixels Height : 304 pixels Display aspect ratio : 2.35:1 Frame rate : 29.970 fps Color space : YUV Chroma subsampling : 4:2:0 Bit depth : 8 bits Scan type : Progressive Compression mode : Lossy Bits/(Pixel*Frame) : 0.270 Stream size : 1.49 GiB (87%) Writing library : XviD 1.2.1 (UTC 2008-12-04) Audio ID : 1 Format : AC-3 Format/Info : Audio Coding 3 Mode extension : CM (complete main) Format settings, Endianness : Big Codec ID : 2000 Duration : 2h 0mn Bit rate mode : Constant Bit rate : 256 Kbps Channel(s) : 2 channels Channel positions : Front: L R Sampling rate : 48.0 KHz Bit depth : 16 bits Compression mode : Lossy Delay relative to video : 26ms Stream size : 220 MiB (13%) Alignment : Split accross interleaves Interleave, duration : 33 ms (1.00 video frame) Interleave, preload duration : 500 ms Gold.2016.DVDScr.XVID.AC3.HQ.Hive-CM8.torrent
  10. Underworld Blood Wars 2017 HDRip XviD AC3-EVO Underworld: Blood Wars IMDB Rating: 6.4/10 Release Date: 13 January 2017 (UK) Genres: Action / Horror Runtime: 1H 31M Plot: The next installment in the blockbuster franchise, UNDERWORLD: BLOOD WARS follows Vampire death dealer, Selene (Kate Beckinsale) as she fends off brutal attacks from both the Lycan clan and the Vampire faction that betrayed her. With her only allies, David (Theo James) and his father Thomas (Charles Dance), she must stop the eternal war between Lycans and Vampires, even if it means she has to make the ultimate sacrifice. Director: Anna Foerster Cast: Kate Beckinsale Theo James Tobias Menzies Torrent Name: Underworld Blood Wars 2017 HDRip XviD AC3-EV Torrent Size: 1.37 GB Hash Info: D6AF0E7D4BF11BD80B0E3280A77E2434AED8A62D Number of File(s): 3 Date of Original Upload: Thu 09 February 2017 RELEASE: Underworld.Blood.Wars.2017.HDRip.XviD.AC3-EVO SOURCE: iTunes ViDEO: 1684 Kbps -2 Passes RESOLUTiON: 720x304 RUNTiME: 1h31m33sec SUBTiTLES: No. AUDiO: 384 Kbps AC3 5.1 LANGUAGE: ENGLiSH GREETS: KING_DVD NOTES: Enjoy. Underworld.Blood.Wars.2017.HDRip.XviD.AC3-EVO.torrent
  11. Underworld Blood Wars 2017 720p WEB-DL H264 AC3-EVO Underworld: Blood Wars IMDB Rating: 6.4/10 Release Date: 13 January 2017 (UK) Genres: Action / Horror Runtime: 1H 31M Plot: The next installment in the blockbuster franchise, UNDERWORLD: BLOOD WARS follows Vampire death dealer, Selene (Kate Beckinsale) as she fends off brutal attacks from both the Lycan clan and the Vampire faction that betrayed her. With her only allies, David (Theo James) and his father Thomas (Charles Dance), she must stop the eternal war between Lycans and Vampires, even if it means she has to make the ultimate sacrifice. Director: Anna Foerster Cast: Kate Beckinsale Theo James Tobias Menzies Torrent Name: Underworld.Blood.Wars.2017.720p.WEB-DL.H264.AC3-EV Torrent Size: 2.86 GB Hash Info: ED956EF86ED7DE044C285F30419BEC1AFA1A097F Number of File(s): 2 Date of Original Upload: Thu 09 February 2017 RELEASE: Underworld.Blood.Wars.2017.720p.WEB-DL.H264.AC3-EVO SOURCE: iTunes ViDEO: 3990 Kbps - Untouched iTunes file RESOLUTiON: 1280x530 RUNTiME: 1h31m33sec SUBTiTLES: No. AUDiO: 384 Kbps AC3 5.1 LANGUAGE: ENGLiSH GREETS: KING_DVD NOTES: Enjoy. Underworld.Blood.Wars.2017.720p.WEB-DL.H264.AC3-EVO.torrent
  12. A Boy and His Blob v1.0 [Apk+Obb]-XpoZ Torrent Name: A Boy and His Blob v1.0 [Apk+Obb]-Xpo Torrent Size: 443.05 MB Hash Info: A5AD7F5B1D7AFAB37DF59AD0871F739576047501 Number of File(s): 8 Date of Original Upload: Wed 08 February 2017 A Boy and His Blob makes its triumphant return! A Boy and His Blob is a platform-puzzle video game developed by WayForward Technologies and published by Majesco. Wikipedia Initial release date: October 13, 2009 Publisher: Majesco Developer: WayForward Technologies Platforms: PlayStation Vita, Wii, PlayStation 4, Xbox One, More Nominations: IGN Wii Award for Best Puzzle Game Genres: Platform game, Puzzle video game Game Review: A Boy and His Blob makes its triumphant return! A reimagining of the NES classic, as the boy, you feed your blob jelly beans and watch him transform into cool and useful objects to solve puzzles and escape danger. With its robust and emotionally driven story, challenging puzzles, and visually impressive art style, A Boy and His Blob is sure to become a classic once again. When Blobolonia is threatened by an evil Emperor, the blob comes to Earth looking for help. Instead, he finds a young boy. Help the blob dethrone the evil Emperor that's terrorizing Blobolonia and establish a friendship with the blob that will last a lifetime. 4.5/5-Google Play 9/10-Steam 4/10-Destructoid 4/5-GOG.com Instructions 1.Install Apk 2.Unzip 'com.majescoentertainment.boyandblob.zip' then Copy com.majescoentertainment.boyandblob Folder to sdcard/Android/obb. (If your default storage is phone then copy that folder in phone memory into same path) 3.Launch the Game 4.Enjoy. A Boy and His Blob v1.0 [Apk+Obb]-XpoZ.torrent
  13. Bad.Santa.2.2016.UNRATED.BRRip.XViD-ETRG Bad Santa 2 (2016) IMDB Rating: 5.5/10 Release Date: 23 November 2016 (UK) Genres: Comedy / Crime / Drama Runtime: 1H 32M Plot: Fueled by cheap whiskey, greed and hatred, Willie teams up once again with his angry little sidekick, Marcus, to knock off a Chicago charity on Christmas Eve. Director: Mark Waters Cast: Billy Bob Thornton Kathy Bates Tony Cox Torrent Name: Bad.Santa.2.2016.UNRATED.BRRip.XViD-ETR Torrent Size: 708.31 MB Hash Info: BEE14EF703C4410C2DCA3A9A3F7F97E816E8557E Number of File(s): 6 Date of Original Upload: Wed 08 February 2017 Bad.Santa.2.2016.UNRATED.BRRip.XViD-ETRG.torrent
  14. The Founder 2016 DVDScr XVID AC3 HQ Hive-CM8 The Founder (2017) IMDB Rating: 7.3/10 Release Date: 17 February 2017 (UK) Genres: Biography / Drama / History Runtime: Unknown Plot: 1954. Having worked as a salesman most of his adult life, Director: John Lee Hancock Cast: Michael Keaton Nick Offerman John Carroll Lynch Torrent Name: The Founder 2016 DVDScr XVID AC3 HQ Hive-CM Torrent Size: 1.67 GB Hash Info: 37FB10C022E39A5DEC0C938CB7644C55CABEB355 Number of File(s): 3 Date of Original Upload: Sat 04 February 2017 Notes: Another Quality-release, We are at the end of this season. We could have done this title mid DEC, but out of respect for Hollywood and the studios, we delayed this title until it was in the cinema. 2 + weeks so that the movie has a fair chance to play in the theater, and make their budget. We don't want any trouble, so all titles have been delayed by over a month or more, or until the web-dl was either out, or very close. As always our goal is not to hurt anyone, just to give people who already watched a movie in the cinema a 2nd chance to watch their favorite one again at a later time at home. Also for the people who are not able to go to the cinema because of any kind of health issues.. Etc, so they can experience some award titles also. We are trying to be the good ones here. We know some may not appreciate this as an reason to share these movies, but hopefully by delaying the release dates, it's more agreeable for everyone. Finally: a huge thanks to our man on the street who sold us all these SCR discs, mid Dec - you've helped bring some happiness to a lot of people and their families. THX M8 Encode: Quality was nice, fixed RGB and brightness. removed all watermarks from video and audio, safety first. Enjoy Video: 720x304 @bitrate 1700 2pass Audio: English AC3 Stereo Sample: yes included http://www.imdb.com/title/tt4276820/ General Complete name : The.Founder.2016.DVDScr.XVID.AC3.HQ.Hive-CM8.avi Format : AVI Format/Info : Audio Video Interleave File size : 1.66 GiB Duration : 1h 55mn Overall bit rate : 2 070 Kbps Writing application : Nandub v1.0rc2 Writing library : Nandub build 1853/release Video ID : 0 Format : MPEG-4 Visual Format profile : Advanced Simple@L5 Format settings, BVOP : 2 Format settings, QPel : Yes Format settings, GMC : No warppoints Format settings, Matrix : Default (H.263) Muxing mode : Packed bitstream Codec ID : XVID Codec ID/Hint : XviD Duration : 1h 55mn Bit rate : 1 802 Kbps Width : 720 pixels Height : 304 pixels Display aspect ratio : 2.35:1 Frame rate : 29.970 fps Color space : YUV Chroma subsampling : 4:2:0 Bit depth : 8 bits Scan type : Progressive Compression mode : Lossy Bits/(Pixel*Frame) : 0.275 Stream size : 1.45 GiB (87%) Writing library : XviD 1.2.1 (UTC 2008-12-04) Audio ID : 1 Format : AC-3 Format/Info : Audio Coding 3 Mode extension : CM (complete main) Format settings, Endianness : Big Codec ID : 2000 Duration : 1h 55mn Bit rate mode : Constant Bit rate : 256 Kbps Channel(s) : 2 channels Channel positions : Front: L R Sampling rate : 48.0 KHz Bit depth : 16 bits Compression mode : Lossy Delay relative to video : 26ms Stream size : 211 MiB (12%) Alignment : Split accross interleaves Interleave, duration : 33 ms (1.00 video frame) Interleave, preload duration : 500 ms The.Founder.2016.DVDScr.XVID.AC3.HQ.Hive-CM8.torrent