Sign in to follow this  
Followers 0
Deadmeat

Convoy.1978.BRRip.XviD.MP3-RARBG

1 post in this topic

Convoy.1978.BRRip.XviD.MP3-RARBG

AF7YQpH.png
325cb9f88bf66895815d7d3b5404e7ed6c89383b


xt6yYRc.png

Convoy (1978)

Release Date: 24 August 1978 (UK)
IMDB Rating: 6.3/10
Genres: Action / Drama
Runtime: 1H 50M

Plot: While driving through the Arizona desert, Albuquerque based independent trucker Martin Penwald - who goes by the handle "Rubber Duck" - along with his fellow truckers "Pig Pen

Director: Sam Peckinpah
Cast:
Kris Kristofferson
Ali MacGraw
Ernest Borgnine

MZjoAdy.png
Video
ID                                       : 0
Format                                   : MPEG-4 Visual
Format profile                           : Simple@L5
Format settings, BVOP                    : No
Format settings, QPel                    : No
Format settings, GMC                     : No warppoints
Format settings, Matrix                  : Default (H.263)
Codec ID                                 : XVID
Codec ID/Hint                            : XviD
Duration                                 : 1h 51mn
Bit rate                                 : 1 600 Kbps
Width                                    : 720 pixels
Height                                   : 306 pixels
Display aspect ratio                     : 2.35:1
Frame rate                               : 23.976 fps
Color space                              : YUV
Chroma subsampling                       : 4:2:0
Bit depth                                : 8 bits
Scan type                                : Progressive
Compression mode                         : Lossy
Bits/(Pixel*Frame)                       : 0.303
Stream size                              : 1.24 GiB (89%)
Title                                    : RARBG.COM - Convoy.1978.BRRip.XviD.MP3-RARBG
Writing library                          : Lavc56.60.100

Audio
ID                                       : 1
Format                                   : MPEG Audio
Format version                           : Version 1
Format profile                           : Layer 3
Mode                                     : Joint stereo
Codec ID                                 : 55
Codec ID/Hint                            : MP3
Duration                                 : 1h 51mn
Bit rate mode                            : Constant
Bit rate                                 : 192 Kbps
Channel(s)                               : 2 channels
Sampling rate                            : 48.0 KHz
Compression mode                         : Lossy
Stream size                              : 153 MiB (11%)
Alignment                                : Aligned on interleaves
Interleave, duration                     : 24 ms (0.58 video frame)
Interleave, preload duration             : 24 ms
Title                                    : RARBG.COM - Convoy.1978.BRRip.XviD.MP3-RARBG
Writing library                          : LAME3.99.5
cWUhB6G.png

08386876468562523683_thumb.png
99371978558634939910_thumb.png
55391792319038507732_thumb.png
59788086662311033114_thumb.png
52261804282182274707_thumb.png

Convoy.1978.BRRip.XviD.MP3-RARBG.torrent

Share this post


Link to post
Share on other sites

Create an account or sign in to comment

You need to be a member in order to leave a comment

Create an account

Sign up for a new account in our community. It's easy!


Register a new account

Sign in

Already have an account? Sign in here.


Sign In Now
Sign in to follow this  
Followers 0